Бессонница кристофер нолан

Сейчас даже и не вспомню почему, но при первом просмотре картина жутко не понравилась. Порой помню, чуть не приходилось прибегать к каким-нибудь сильным средствам, чтобы не уснуть прямо на просмотре, спасало только кофе. Странно, вроде самоназвание здесь буквально кричит, что вы забудете про сон, хотя бы на момент фильма, но к концу наоборот выступает хорошей сказкой для сна. Не знаю, но пересмотреть спустя годы все, же хотелось, ибо мало ли, пока бегал за кофе чего-нибудь, да и упустил. К тому же после просмотра оригинала, с одноименным названием (прямиком из Норвегии) хотелось все-таки сравнить разницу ремейка. Но, спустя время понял, что зря не прихватил красных пилюль от сна, ведь ситуация вновь повторилась, да и сравнивать как оказалось здесь, увы, нечего.

Крутой детектив (Аль Пачино) со своим напарником (Мартин Донован) приезжают, а точнее прилетают на самолете в маленький городок, что на Аляске, по весьма как оказалось запутанному делу.


у поручено вести расследование убийства семнадцатилетней девушки. Тут же нашлись и местные помощники, у которых отродясь в их глубинке серьезных происшествий не случалось, довольствовались лишь драками в местных барах. Здесь как раз повод проявить себя получила местный детектив (Хилари Суэнк) походу самая начитанная и образованная в их участке, ну да ладно. Дальше больше, неожиданно расследование получает новый оборот, ввиду тому стечение нелепых и странных событий. Поиск изувера как, оказалось, было лишь делом времени, ибо он сам не прочь рассказать о наболевшем, ведь у него тоже бессонница, как и у нашего крутого детектива. И тут начинаются игры в доброго и злого полицейского, ведь репутация детектива уже начала потихоньку играть не в его сторону. Почуяв, сей страх ситуации, наш маньяк уже не кажется неким вселенским злом, ведь виной тому оказываются стечение обстоятельств, которых он, увы, не предвидел или просто не захотел. Если сравнивать с оригиналом, то здесь атмосфера как-то не чувствуется, хотя красивые пейзажи придают некого антуража, но это все кажется каким-то картонным и безликим. Передать ту холодную и постоянно мрачную обстановку увы не получилось. Картина больше похожа даже не на триллер, а на драму, о взаимоотношениях людей в разных ситуациях, угрызениях совести и тому подобное. Не хватило, как мне кажется какой-то напряженности и таинственности, ведь самое интересное уже раскрыли на середине картины.


Кино смотрится как ни странно благодаря актерской игре. Во многом выигрывая из-за участия в нем — Аль Пачино, полицейского прилетевшего из Лос-Анджелеса аж на Аляску, чтобы спасти своим присутствием сей фильм и заодно раскрыть преступление. Его образ получился неким героем, сошедшим с глянцевых книжек, четко знающим свое дело, но в, то, же время совсем не прочь вести грязные делишки, из-за этого герой выглядит слегка подпорченным. Его напарник, которого играл Мартин Донован, толком не успел ничего и сделать, ввиду своей малозначительной роли. Местная помощница Хилари Суэнк сыграла неплохо, хотя ничего серьезного тут от нее не требовалось. Ну и маньяк, убийца, и просто нехороший человек, называть можно по разному, которого сыграл Робин, Уильямс вышел, как мне кажется самым слабым звеном в этой цепочке. Образ крайне не проработан, к тому же получился весьма странным и явно не его роль, здесь нужно было другого актера, этот факт как раз во многом предопределил судьбу фильма.


Итог, ‘Бессонница’ кино, которое по качеству явно не дотягивает до оригинала. Виной всему много разных причин. Скандинавский оригинал, хоть и менее насыщен какими- то хитросплетениями сюжета и не имеет такого внушительного актерского состава, но берет исключительно другим. Это кино можно посмотреть, но помимо актерского состава и пейзажей, увы, глазу зацепится просто нечем, к тому, же запросто можно и задремать.

6 из 10

www.kinopoisk.ru

General
Complete name : C:UsersJinDownloadseMule IS ModIncomingInsomnia.2002.BluRay.1080p.DTS.x264-CHD.mkv
Format : Matroska
File size : 11.9 GiB
Duration : 1h 58mn
Overall bit rate : 14.4 Mbps
Encoded date : UTC 2010-07-16 17:53:07
Writing application : mkvmerge v3.3.0 (‘Language’) built on Mar 24 2010 14:59:24
Writing library : libebml v0.8.0 + libmatroska v0.9.0
Video
ID : 1
Format : AVC
Format/Info : Advanced Video Codec
Format profile : High@L4.1
Format settings, CABAC : Yes
Format settings, ReFrames : 5 frames
Muxing mode : Container profile=Unknown@4.1
Codec ID : V_MPEG4/ISO/AVC
Duration : 1h 58mn
Bit rate : 10.3 Mbps
Nominal bit rate : 10.6 Mbps
Width : 1 920 pixels
.


x8dct=1 / cqm=2 / deadzone=21,11 / fast_pskip=0 / chroma_qp_offset=-2 / threads=12 / sliced_threads=0 / nr=0 / decimate=1 / interlaced=0 / constrained_intra=0 / bframes=4 / b_pyramid=2 / b_adapt=2 / b_bias=0 / direct=3 / weightb=1 / open_gop=0 / weightp=2 / keyint=250 / keyint_min=25 / scenecut=40 / intra_refresh=0 / rc_lookahead=50 / rc=2pass / mbtree=1 / bitrate=10597 / ratetol=2.0 / qcomp=0.70 / qpmin=10 / qpmax=51 / qpstep=4 / cplxblur=20.0 / qblur=0.5 / vbv_maxrate=50000 / vbv_bufsize=50000 / ip_ratio=1.40 / aq=1:0.80 / nal_hrd=none
Language : English
Audio #1
ID : 2
Format : AC-3
Format/Info : Audio Coding 3
Codec ID : A_AC3
Duration : 1h 58mn
Bit rate mode : Constant
Bit rate : 384 Kbps
Channel(s) : 6 channels
Channel positions : Front: L C R, Side: L R, LFE
Sampling rate : 48.0 KHz
Video delay : 2s 300ms
Stream size : 325 MiB (3%)
Title : Dublyage
Language : Russian
Audio #2

mn
Bit rate mode : Constant
Bit rate : 1 510 Kbps
Channel(s) : 6 channels
Channel positions : Front: L C R, Side: L R, LFE
Sampling rate : 48.0 KHz
Resolution : 24 bits
Stream size : 1.25 GiB (10%)
Language : Russian
Audio #4
ID : 5
Format : DTS
Format/Info : Digital Theater Systems
Codec ID : A_DTS
Duration : 1h 58mn
Bit rate mode : Constant
Bit rate : 1 510 Kbps
Channel(s) : 6 channels
Channel positions : Front: L C R, Side: L R, LFE
Sampling rate : 48.0 KHz
Resolution : 24 bits
Stream size : 1.25 GiB (10%)
Title : DTS-HD MA CORE 1536K
Language : English
Text #1
ID : 6
Format : UTF-8
Codec ID : S_TEXT/UTF8
Codec ID/Info : UTF-8 Plain Text
Language : Russian
Text #2
ID : 7
Format : UTF-8
Codec ID : S_TEXT/UTF8
Codec ID/Info : UTF-8 Plain Text
Language : English

rutracker.org