Бессонница кристофер нолан

Фильм буду пересматривать вот уже какой раз… Всматриваюсь в него, как в картину, и не могу оторваться.

Причина, кажется в том, что каждый персонаж нашел своего исполнителя. Попадание — 100%. И конечно, у каждого своя игра.

Пытаясь описать игру Аль Пачино, в эпитетах захлебывались даже бывалые критики. У меня просто нет слов. Хочется время от времени прокручивать отдельные эпизоды и всматриваться, как Пачино еле уловимым жестом, взглядом, движением бровей, наклоном головы, интонацией голоса сообщает зрителю внутреннюю жизнь своего героя и его предельное эмоциональное напряжение, которое нельзя обнаружить, чтобы не выдать себя. И понимаешь, что играет он точно так же, как живет его герой — на грани, без права на ошибку, на лишнее произвольное движение, ведь здесь чуть громче, там чуть резче — и гипнотическое притяжение его игры исчезнет, будет обычное движение в кадре.


Поэтому сидишь у экрана и не дышишь, и — в отличие от большинства триллеров ждешь не очередного «экшен»-эпизода (выстрелы, погони, и т. д. и т. п.), а ждешь следующего крупного плана, чтобы проглотить очередную порцию нелегкой жизни детектива Дормера. Гениальный актер. Неоднозначный, живой, непредсказуемый персонаж, который затягивает в свою изматывающую внутреннюю борьбу, усталость, напряжение, в измененное бессонницей сознание, в инстинктивно-отчаянное поведение человека, за которым идет охота.

Special regards актерскому дуэту Пачино — Уильямс. Игра на контрасте. Рядом с флегматичным, внешне простоватым и грузным Уильямсом, у которого лицо словно на замке, почти незаметная мимика и свободная пластика Аль Пачино кажутся просто ураганом эмоций.

Финч — самая подходящая партия для теряющего себя Дормера. Не могу себе представить, чтобы такому полицейского (и такой личности) достался бы элементарный «стопроцентно плохой парень». Отношения Дормера и Финча больше напоминают «альтер эго», на что Финч усиленно намекает и надеется, и за что ему втройне страшно: Финч боится и уголовного преследования, и того сложного и запутавшегося человека, который его преследует, и своей власти над этим человеком. Дормер так же опасен для Финча, как и некая фигура подсознания «плохого писателя», которая допустила его до убийства.


Что касается Хилари Суонк, то соглашусь с тем, что она сказала в своем интервью: у нее много общего с ее героиней (начинающий детектив Элли Бёрр, неопытная, но смышленая и старательная). Элли считала за честь работать с Дормером, восхищаясь его мастерством, и сама актриса так же отозвалась о работе с Аль Пачино. Искренне желаю чтобы ей этот опыт пошел на пользу; думаю, что данные у Хилари для этого есть.

Особые впечатления создает место действия. Горные вершины, покрытые снегом, лес на склонах, холодные реки, темные оттенки воды, зелени и камней, и — свет. Свет, изменяющий пространство и сознание, усиливающий смятение в душах и умах персонажей фильма, символ ложной ясности.

10 из 10

www.kinopoisk.ru

General
Complete name : C:UsersJinDownloadseMule IS ModIncomingInsomnia.2002.BluRay.1080p.DTS.x264-CHD.mkv
Format : Matroska
File size : 11.9 GiB
Duration : 1h 58mn
Overall bit rate : 14.4 Mbps
Encoded date : UTC.


10.3 Mbps
Nominal bit rate : 10.6 Mbps
Width : 1 920 pixels
Height : 800 pixels
Display aspect ratio : 2.40:1
Frame rate : 23.976 fps
Resolution : 8 bits
Colorimetry : 4:2:0
Scan type : Progressive
Bits/(Pixel*Frame) : 0.280
Stream size : 8.51 GiB (72%)
Title : Insomnia.2002
Writing library : x264 core 102 r1666 d058f37
Encoding settings : cabac=1 / ref=5 / deblock=1:-3:-3 / analyse=0x3:0x113 / me=umh / subme=10 / psy=1 / psy_rd=1.05:0.10 / mixed_ref=1 / me_range=32 / chroma_me=1 / trellis=2 / 8x8dct=1 / cqm=2 / deadzone=21,11 / fast_pskip=0 / chroma_qp_offset=-2 / threads=12 / sliced_threads=0 / nr=0 / decimate=1 / interlaced=0 / constrained_intra=0 / bframes=4 / b_pyramid=2 / b_adapt=2 / b_bias=0 / direct=3 / weightb=1 / open_gop=0 / weightp=2 / keyint=250 / keyint_min=25 / scenecut=40 / intra_refresh=0 / rc_lookahead=50 / rc=2pass / mbtree=1 / bitrate=10597 / ratetol=2.0 / qcomp=0.70 / qpmin=10 / qpmax=51 .

25 MiB (3%)
Title : Dublyage
Language : Russian
Audio #2
ID : 3
Format : AC-3
Format/Info : Audio Coding 3
Codec ID : A_AC3
Duration : 1h 58mn
Bit rate mode : Constant
Bit rate : 384 Kbps
Channel(s) : 6 channels
Channel positions : Front: L C R, Side: L R, LFE
Sampling rate : 48.0 KHz
Video delay : 2s 300ms
Stream size : 325 MiB (3%)
Title : MVO
Audio #3
ID : 4
Format : DTS
Format/Info : Digital Theater Systems
Codec ID : A_DTS
Duration : 1h 58mn
Bit rate mode : Constant
Bit rate : 1 510 Kbps
Channel(s) : 6 channels
Channel positions : Front: L C R, Side: L R, LFE
Sampling rate : 48.0 KHz
Resolution : 24 bits
Stream size : 1.25 GiB (10%)
Language : Russian
Audio #4
ID : 5
Format : DTS
Format/Info : Digital Theater Systems
Codec ID : A_DTS
Duration : 1h 58mn
Bit rate mode.

Codec ID/Info : UTF-8 Plain Text
Language : English

rutracker.org