Бессонница кристофер нолан

Как правило, детективные фильмы имеют преимущество перед остальными жанрами. События можно закрутить таким образом, что распутывание цепочки событий может быть в принципе элементарным, но пару эффективных сюжетов с перестрелками, взрывами, ранениями и зритель уже в полном напряжении и непонимании развязки… Обычно думаешь:»…. отлично, он уже знает, как выглядит убийца! Теперь есть зацепка! Теперь он его точно поймает!», либо»… ну вот блин, теперь он знает, как он выглядит, теперь он его точно поймает… пошёл я спать…» Так, на мой взгляд, строится основная масса детективных фильмов, и не скажу, что плохих…

Этот фильм снят абсолютно с другой стороны. Суть то в принципе даже не в поимке убийцы, речь уже идёт вообще о том, что истинно, а что нет. Сомнения, ответ на которые лежит в душе человека, и найти этот ответ ой как не просто.


гативные эмоции, несправедливость, которые возникают в твоей жизни именно по твоей вине, но расплата за которые зависит не только от тебя…. Имеешь ли ты право судить других за свои ошибки, пускай и совершенные за благое дело?! Можно ли совершить роковой поступок эмоционально, но не желая этого в душе? Какую цену тогда придётся заплатить за это и как судить такой поступок и кто должен судить?! Может собственная совесть, может, нет страшней судьи, чем ты сам? Ведь себя-то не обманешь…

Главная идея фильма показать людям, что за всё в этой жизни нужно платить и что цель никогда не оправдывает не честные средства её достижения! Очень спорное и идеализированное мнение, но, на мой взгляд, очень правильное и верное!

Вопрос о самосуде? Имеет ли право человек сам судить человека? Дано ли ему право вмешиваться в ход естественных событий, решать для себя — да, этот человек виновен и должен сидеть в тюрьме или вообще не должен жить? По всем законам морали и духовности ответ очевидно ясен — конечно нет! Но! Любая система власти в той ли иной мере не идеальна, где-то меньше, где-то больше. Так вот ответственность, которая лежит на людях, которым была доверена эта власть, очень велика! Сумеет ли такой человек осудить преступника не обманув самого себя, свою совесть? Ведь преступник, это человек преступивший, нарушивший закон, определённые правила.


nbsp;чем же тогда отличается блюститель правопорядка, который, по сути, тоже нарушает закон, подбрасывая улики, либо просто забирающий жизнь у преступника? Имеет ли он на это право? Ведь это может быть и «оборотень в погонах»? И тогда осуждены, либо убиты, могут быть уже совсем не виновные люди! Так вот фильм, на мой взгляд, очень точно отвечает на этот вопрос — каким бы ты не был честным, каким бы ты не считал себя правильным, ты просто не имеешь право поступать наперекор своим принципам, своей вере! Если ты борешься с преступниками, ты не должен действовать их методами! Потому что если ты всей душой веришь в благое дело, действуя, даже порой вынужденно, их методами, ты всё равно обманываешь себя!

Эта точка зрения идеальна, но именно к идеалу мы все должны стремиться! Благодаря идеалам мы растём в своём уровне. Именно такого плана фильмы заставляют нас смотреть на жизнь с другой стороны, что-то переосмысливать! Нельзя не отметить прекрасную игру актеров Аль Пачино и Робина Уильямса! Без них фильм бы смотрелся скучновато. Это бесспорно признанные мастера своего дела! Гонорары этим актёрам наверняка были не шуточные, но в ЭТОМ случае, цель АБСОЛЮТНО оправдала средства!


9 из 10

www.kinopoisk.ru

General
Complete name : C:UsersJinDownloadseMule IS ModIncomingInsomnia.2002.BluRay.1080p.DTS.x264-CHD.mkv
Format : Matroska
File size : 11.9 GiB
Duration : 1h 58mn
Overall bit rate : 14.4 Mbps
Encoded date : UTC 2010-07-16 17:53:07
Writing application : mkvmerge v3.3.0 (‘Language’) built on Mar 24 2010 14:59:24
Writing library : libebml v0.8.0 + libmatroska v0.9.0
Video
ID : 1
Format : AVC
Format/Info : Advanced Video Codec
Format profile : High@L4.1
Format settings, CABAC : Yes
Format settings, ReFrames : 5 frames
Muxing mode : Container profile=Unknown@4.1
Codec ID : V_MPEG4/ISO/AVC
Duration : 1h 58mn
Bit rate : 10.3 Mbps
Nominal bit rate : 10.6 Mbps
Width : 1 920 pixels
Height : 800 pixels
Display aspect ratio : 2.40:1
Frame rate : 23.976 fps
Resolution : 8 bits
Colorimetry : 4:2:0
Scan type : Progressive
Bits/(Pixel*Frame) : 0.280
Stream size : 8.51 GiB (72%)
Title : Insomnia.2002
Writing library : x264 core 102 r1666 d058f37
Encoding settings : caba.


/ mbtree=1 / bitrate=10597 / ratetol=2.0 / qcomp=0.70 / qpmin=10 / qpmax=51 / qpstep=4 / cplxblur=20.0 / qblur=0.5 / vbv_maxrate=50000 / vbv_bufsize=50000 / ip_ratio=1.40 / aq=1:0.80 / nal_hrd=none
Language : English
Audio #1
ID : 2
Format : AC-3
Format/Info : Audio Coding 3
Codec ID : A_AC3
Duration : 1h 58mn
Bit rate mode : Constant
Bit rate : 384 Kbps
Channel(s) : 6 channels
Channel positions : Front: L C R, Side: L R, LFE
Sampling rate : 48.0 KHz
Video delay : 2s 300ms
Stream size : 325 MiB (3%)
Title : Dublyage
Language : Russian
Audio #2
ID : 3
Format : AC-3
Format/Info : Audio Coding 3
Codec ID : A_AC3
Duration : 1h 58mn
Bit rate mode : Constant
Bit rate : 384 Kbps
Channel(s) : 6 channels
Channel positions : Front: L C R, Side: L R, LFE
Sampling rate : 48.0 KHz
Video delay : 2s 300ms
Stream size : 325 MiB (3%).

Systems
Codec ID : A_DTS
Duration : 1h 58mn
Bit rate mode : Constant
Bit rate : 1 510 Kbps
Channel(s) : 6 channels
Channel positions : Front: L C R, Side: L R, LFE
Sampling rate : 48.0 KHz
Resolution : 24 bits
Stream size : 1.25 GiB (10%)
Title : DTS-HD MA CORE 1536K
Language : English
Text #1
ID : 6
Format : UTF-8
Codec ID : S_TEXT/UTF8
Codec ID/Info : UTF-8 Plain Text
Language : Russian
Text #2
ID : 7
Format : UTF-8
Codec ID : S_TEXT/UTF8
Codec ID/Info : UTF-8 Plain Text
Language : English

rutracker.org