Бессонница кристофер нолан

General
Complete name : C:UsersJinDownloadseMule IS ModIncomingInsomnia.2002.BluRay.1080p.DTS.x264-CHD.mkv
Format : Matroska
File size : 11.9 GiB
Duration : 1h 58mn
Overall bit rate : 14.4 Mbps
Encoded date : UTC 2010-07-16 17:53:07
Writing application : mkvmerge v3.3.0 (‘Language’) built on Mar 24 2010 14:59:24
Writing library : libebml v0.8.0 + libmatroska v0.9.0
Video
ID : 1
Format : AVC
Format/Info : Advanced Video Codec
Format profile : High@L4.1
Format settings, CABAC : Yes
Format settings, ReFrames : 5 frames
Muxing mode : Container profile=Unknown@4.1
Codec ID : V_MPEG4/ISO/AVC
Duration : 1h 58mn
Bit rate : 10.3 Mbps
Nominal bit rate : 10.6 Mbps
Width : 1 920 pixels
Height : 800 pixels
Display aspect ratio : 2.40:1
Frame rate : 23.976 fps
Resolution : 8 bits
Colorimetry : 4:2:0
Scan type : Progressive


/ b_pyramid=2 / b_adapt=2 / b_bias=0 / direct=3 / weightb=1 / open_gop=0 / weightp=2 / keyint=250 / keyint_min=25 / scenecut=40 / intra_refresh=0 / rc_lookahead=50 / rc=2pass / mbtree=1 / bitrate=10597 / ratetol=2.0 / qcomp=0.70 / qpmin=10 / qpmax=51 / qpstep=4 / cplxblur=20.0 / qblur=0.5 / vbv_maxrate=50000 / vbv_bufsize=50000 / ip_ratio=1.40 / aq=1:0.80 / nal_hrd=none
Language : English
Audio #1
ID : 2
Format : AC-3
Format/Info : Audio Coding 3
Codec ID : A_AC3
Duration : 1h 58mn
Bit rate mode : Constant
Bit rate : 384 Kbps
Channel(s) : 6 channels
Channel positions : Front: L C R, Side: L R, LFE
Sampling rate : 48.0 KHz
Video delay : 2s 300ms
Stream size : 325 MiB (3%)
Title : Dublyage
Language : Russian
Audio #2
ID : 3
Format : AC-3
Format/Info : Audio Coding 3
Codec ID : A_AC3
Duration : 1h 58mn
Bit rate mode : Constant
Bit rate : 384 Kbps

.0 KHz
Resolution : 24 bits
Stream size : 1.25 GiB (10%)
Language : Russian
Audio #4
ID : 5
Format : DTS
Format/Info : Digital Theater Systems
Codec ID : A_DTS
Duration : 1h 58mn
Bit rate mode : Constant
Bit rate : 1 510 Kbps
Channel(s) : 6 channels
Channel positions : Front: L C R, Side: L R, LFE
Sampling rate : 48.0 KHz
Resolution : 24 bits
Stream size : 1.25 GiB (10%)
Title : DTS-HD MA CORE 1536K
Language : English
Text #1
ID : 6
Format : UTF-8
Codec ID : S_TEXT/UTF8
Codec ID/Info : UTF-8 Plain Text
Language : Russian
Text #2
ID : 7
Format : UTF-8
Codec ID : S_TEXT/UTF8
Codec ID/Info : UTF-8 Plain Text
Language : English

rutracker.org

Когда в одном фильме встречаются три оскароносных актера, двое из которых считаются чуть ли не крупнейшими актерами современности, от фильма ожидаешь чего-то необыкновенного.


Фильм смотришь с целью посмотреть на игру великих актеров, насладиться живыми эмоциями, живой, настоящей жизнью без фальши и театрально-модельных ломаний американских блокбастеров. И неважно, какими средствами это достигается, неважно, кто какие роли будет играть. Главное, чтобы все было по-настоящему, без дураков. И в данном случае цель оправдывает средства. Фильм оказался очень сильным.

Правда, это римейк норвежского фильма, но я его не видел и не уверен, что кто-то, будь он хоть семи пядей во лбу, сможет сыграть лучше, чем Пачино и Уильямс, слишком уж высок уровень их игры. Этот фильм действительно блистательная демонстрация актрских талантов — без спецэффектов, без экшена, без большого количества динамичных сцен, пожалуй, фильм даже скучноват, но сделано это намеренно.

Он таким и должен быть — монотонный, депрессивно-тягостный, туманный фильм. Действие не зря перенесено на Аляску — однотонная, скупая на краски природа, серые дни, такие же серые ночи, смешение времени суток и времен года, мрачная, негостеприимная Аляска, где живут мрачные, негостеприимные люди, убежавшие от всего остального мира. Атмосфера зыбкого полусна охватывает с самого начала и не отпускает до конца — плотная завеса тумана, голые камни, мутная серая вода, усталые, мучающиеся герои.


Аль Пачино сыграл невероятно правдиво. Я не страдаю бессонницей, но когда смотришь на мучение его героя, ему веришь сразу и безоговорочно. Пачино великолепно передает все терзания и муки своего героя — муки бессонницей, совестью, страхом. Его глаза, постоянный стресс, внезапные эмоциональные взрывы — все сделано на грани реальности и сна. После таких ролей начинаешь понимать, почему этого актера называют величайшим из ныне живущих — он настолько сильно вживается в свои роли, что не остается границы между героем и актером.

Но мне больше поравился Робин Уильямс. Это вообще очень разноплановый актер — блистателен и в комедиях, и в драмах. И он снова доказывает, что для него нет границ в амплуа. Он актер, которому доступны все жанры. Играет он очень легко, в отличие от тяжеловесного Пачино, и вытягивает скучные, провисающие сцены.

Уильямс просто поражает, кстати, за последние годы он сыграл уже не одну отрицательную роль и во всех просто великолепен. Его добрые глаза и трогательная улыбка превращаются в фальшивую маску, надетую на опасных психопатов — а если актер популярен в диаметрально противоположных жанрах — это ли не признак таланта?


Мрачный, довольно тяжелый фильм, без привычных для американских боевиков и триллеров штампов, совсем нединамичный, полусонный, держащийся только на актерской игре. Это не зрелище. Поэтому далеко не все смогут оценить этот прекрасный фильм по достоинству, а ведь это один из лучших в своем жанре фильмов последнего времени!

www.kinopoisk.ru