Бессонница insomnia

Кристофер Нолан любим мной прежде всего благодаря «Престижу», «Бэтмену: Начало», а также этой манящей к себе «Бессонницей». Вот эти три фильма я мгновенно занёс к себе в кино коллекцию. Они оставляют после себя осадок бесконечного самоанализа, самокопания, которое «король ужаса» Стивен Кинг окрестил как самоканнибализм. Почему именного так, а не иначе? Всё просто, и при этом тяжело, потому что люди, не обделённые внутренней моралью, а по другому нравственными ценностями, пусть даже эти люди о них и не догадываются, но они оказывают на них самое сильное влияние, заставляют их безостановочно оценивать те или иные поступки. Можно обмануть друзей, любимых, родственников и тем более врагов, но даже если все эти махинации срабатывали с выше перечисленными субъектами, то наше эго, внутренний голос, душа, которая не запрятана глубоко внутри — дают о себе знать.


Но это, к счастью или сожалению, происходит не со всеми. Кто-то бежит от них сломя голову с помощью алкоголя и наркотиков, а кто-то и вовсе решает уйти из этого мира наложив на себя руки. Такие люди есть, и их не так уж и много. Гораздо больше тех личностей, одного из которых отлично сыграл Робин Уильямс. Для них нет ничего святого. НИЧЕГО. Это можно объяснять разными причинами: неудавшееся детство, в котором нет покоя возле родителей и сверстников, совершённое и оставшееся безнаказанным насилие, разбитые надежды, или вообще отсутствие детства как такового. А можно и вовсе смело предположить, что они родились МЁРТВЫМИ. В самом прямом смысле этого слова. Свиду они живые, но ВНУТРИ они всегда были мёртвыми. Они всегда найдут себе оправдание, на какие бы то ни было действия. Им не суждено различить, что есть хорошо, а что плохо. Ввиду того, что их внутренняя опция отрицает наличие этих полярностей. Для этих субъектов их просто не существует.

Персонаж же Аль Пачино другой. При кажущейся невозмутимости и беспристрастности, он оценивает всё от начала и до конца сообразно личным установкам. Всё происходящее с ним неминуемо подталкивает его к пропасти правды, которая сказывается и играет с ним в злую шутку или в рок судьбы.


поминаем его слова ближе к концу фильма — «Я чувствовал, что это мне ещё аукнется». В этой фразе заключён весь его моральный стержень. Но это требовало жертв, на которые в дальнейшем он рискнёт пойти ещё не раз, повторяя и совершая всё вновь очередные, и кажущиеся изначально бессмысленными ошибки.

Данный фильм играет для меня большую роль, потому что я и сам время от времени страдаю этим синдромом, название которому — бессонница. Перемена часовых поясов, круглосуточные белые ночи служили лишь фоном персонажу, которого превосходного сыграл Пачино. Вдобавок суровость такого неприхотливого места обитания как Аляска, и смешанность бредовых видений, вперемешку с личными неврозами, и вам обеспечены конец душевного равновесия и функционирование здоровой нервной системы.

Этот фильм поднимает очень много интересных, и одновременно несущих тревогу и боль вопросов, на которые возможно, зритель по ходу просмотра этого замечательного фильма, будет иметь смелость ответить самим себе, что не раз подтвердит актуальность Нолана, как режиссёра, который исследует человеческую природу в тех или иных состояния эмоционального спектра.

Лично для меня, этот фильм всегда будет являться одним из самых любимых и тех, кто глубоко засел в мою душу. Заставляя пересматривать его снова и снова, и особенно в те моменты, когда у меня Бессонница.


Однозначно:

10 из 10

www.kinopoisk.ru

General
Complete name : C:UsersJinDownloadseMule IS ModIncomingInsomnia.2002.BluRay.1080p.DTS.x264-CHD.mkv
Format : Matroska
File size : 11.9 GiB
Duration : 1h 58mn
Overall bit rate : 14.4 Mbps
Encoded date : UTC 2010-07-16 17:53:07
Writing application : mkvmerge v3.3.0 (‘Language’) built on Mar 24 2010 14:59:24
Writing library : libebml v0.8.0 + libmatroska v0.9.0
Video
ID : 1
Format : AVC
Format/Info : Advanced Video Codec
Format profile : High@L4.1
Format settings, CABAC : Yes
Format settings, ReFrames : 5 frames
Muxing mode : Container profile=Unknown@4.1
Codec ID : V_MPEG4/ISO/AVC
Duration : 1h 58mn
Bit rate : 10.3 Mbps
Nominal bit rate : 10.6 Mbps
Width : 1 920 pixels
Height : 800 pixels
Display aspect ratio : 2.40:1
Frame rate : 23.976 fps
Resolution : 8 bits
Colorimetry : 4:2:0
Scan type : Progressive
Bits/(Pixel*Frame) : 0.280
Stream size : 8.51 GiB (72%)
Title : Insomnia.2002
Wr.


eyint_min=25 / scenecut=40 / intra_refresh=0 / rc_lookahead=50 / rc=2pass / mbtree=1 / bitrate=10597 / ratetol=2.0 / qcomp=0.70 / qpmin=10 / qpmax=51 / qpstep=4 / cplxblur=20.0 / qblur=0.5 / vbv_maxrate=50000 / vbv_bufsize=50000 / ip_ratio=1.40 / aq=1:0.80 / nal_hrd=none
Language : English
Audio #1
ID : 2
Format : AC-3
Format/Info : Audio Coding 3
Codec ID : A_AC3
Duration : 1h 58mn
Bit rate mode : Constant
Bit rate : 384 Kbps
Channel(s) : 6 channels
Channel positions : Front: L C R, Side: L R, LFE
Sampling rate : 48.0 KHz
Video delay : 2s 300ms
Stream size : 325 MiB (3%)
Title : Dublyage
Language : Russian
Audio #2
ID : 3
Format : AC-3
Format/Info : Audio Coding 3
Codec ID : A_AC3
Duration : 1h 58mn
Bit rate mode : Constant
Bit rate : 384 Kbps
Channel(s) : 6 channels
Channel positions : Front: L C R, Side: L R, LFE
Sampling rat.

dio #4
ID : 5
Format : DTS
Format/Info : Digital Theater Systems
Codec ID : A_DTS
Duration : 1h 58mn
Bit rate mode : Constant
Bit rate : 1 510 Kbps
Channel(s) : 6 channels
Channel positions : Front: L C R, Side: L R, LFE
Sampling rate : 48.0 KHz
Resolution : 24 bits
Stream size : 1.25 GiB (10%)
Title : DTS-HD MA CORE 1536K
Language : English
Text #1
ID : 6
Format : UTF-8
Codec ID : S_TEXT/UTF8
Codec ID/Info : UTF-8 Plain Text
Language : Russian
Text #2
ID : 7
Format : UTF-8
Codec ID : S_TEXT/UTF8
Codec ID/Info : UTF-8 Plain Text
Language : English

rutracker.org